Motown Flac

8224 MHz | 56:15 minutes | Scans included | 4,04 GBor FLAC 2. Barrett Strong - Money (That's What I Want) - Barrett Strong 2. The Contours - Do You Love Me. Direct download via HTTP available as well. My World Is Empty Without You (03:06) 02. Ain't No Woman (Like The One I Got) 3. Albums related to A Loss For Words - Motown Classics. Mary Wells - I Don't Want To Take A Chance 4. Release Name: VA-Motown_Greatest_Hits-3CD-FLAC-2019-401 Artist: VA Album: Motown Greatest Hits Genre: Soul Year: 2019 Tracks: 19 Duration: 03:28:45 Size: 1. Michael McDonald - Motown Two (2004) {SACD ISO + FLAC 24bit/88,2kHz} Posted by mqs / Posted 4 years ago September 1, 2016 Michael McDonald - Motown Two (2004) [2. 3 flac download Various - Motown's Biggest Pop Hits: All #1 On Billboard's Charts flac download Diana Ross - Free Soul. VA - Hitsville USA: The Motown Singles Collection Vol. The composition was first successful as a 1967 hit single recorded by Marvin Gaye and Tammi Terrell, becoming a hit again in 1970 when recorded by former Supremes frontwoman Diana Ross. The best place where you can find and download great music in lossless formats, MP3, free. Ö3 Greatest Hits Vol. Girl Don't Take Your Love From Me - 03:51 4. Listen to more stations from Magic. 03 - The Velvelettes - He Was Really Saying Somethin'. 02 - The Contours - Do You Love Me. Everything Is Good About You (03:28) 04. Experience the excellence of Losslessdl. 01MB ) Motown Singles - CD53-21 - Danny Hernandez & The Ones - As Long As I've Got You. The Flag is a 1986 Rick James album. The Supremes - Where Did Our Love Go (02:31) 02. Marvin Gaye - Hitsville: The Making Of Motown (Original Motion Picture Soundtrack / Deluxe) 24 bit Hi-Res. Stubborn Kind Of Fellow - Marvin Gaye 6. A central player in Detroit since the days of the Direct Drive DJ tag team, Mr Clark is hot property - it was Clark who programmed the drums on early UR material, fuelling Mike Banks' Red Planet series, going on to release on Planet E amongst others. DeBarge - Time Will Reveal: The Complete Motown Albums [3CD] (2011) R&B, Soul/Funk, Pop, Motown | EAC Rip | FLAC, Tracks+CUE+LOG+Scans (JPEG) | 03:28:29 h. Format: VBR V0 MP3, FLAC [View Comments To Listen] Following Second To Nunn in 1983 comes Private Party, singer/songwriter Bobby Nunn's sophomore effort for Motown Records. Hitsville: The Making Of Motown (Original Motion Picture Soundtrack / Deluxe) (2019, 24 bit Hi-Res Web Flac) - Release Date: 2019 Audio Codec: Flac Rip Type: tracks Bitrate: lossless Audio Channels: 2. Motown Album Discography, Part 1 (1961-1981) by David Edwards and Mike Callahan Last update: August 7, 2012 The first two dozen albums (600-624), have been originally issued — with only a few exceptions — with either the car logo or Motown rectangular logo (see below) on the front of the record jacket. flac) Тип рипа: tracks+. The original Motown Chartbusters (LPs) were massive in the UK and deserve far better sound. Motown: The Ultimate Collection (3 CD Box Set) (2006) FLAC Motown 50: Yesterday, Today, Forever (3CD Box Set) (2008) FLAC Soul Vibration 75 Original All-Time Classics (2018) FLAC. 0 (converted with foobar2000 to tracks…. Download flac lossless music free. Simple Way to Listen / Download The Motown Years 50 by Michael Jackson & Jackson 5 in mp3, FLAC, ogg, zip album and other supported formats. 2: 1962 - Various Artists on AllMusic - 2005 - Picking up where the first volume of Hip-O…. Sexual Healing 9. 192KB/S MP3 320KB/S MP3 WAV FLAC ALAC AIFF. On the R&B singles chart, the group scored a record seventy-one Top 40 singles, with fourteen of those reaching #1. Motown Anthems 2012 [EAC - FLAC](oan) Profile: Motown is a record company originally founded by Berry Gordy, Jr. nz/#!s14ADAzA!uXPW350i-Aci_v7wLS0zWtpagRLgwNoSDCVseJ9fx64. If you need more precise search, use the option «Advanced Search SACD-R, FLAC, APE favorite artists. VA - Motown Greatest Hits (3CD, 2019) Flac tracks | 3:31:50 | 1,3 Gb Genre: Funk, Soul, R&B / Label: Universal Music 2019 marks the 60th year of MOTOWN, widely regarded as the greatest, most successful and best loved record label in music and to commemorate this landmark anniversary Motown will be issuing a brand new Greatest Hits compilation featuring 60 tracks from across their enormously. Download VA - Motown Greatest Hits (3CD, 2019) Flac or any other file from Music category. Full set of Complete Motown Singles Box Sets. Hand-picked hits, harmonies and hard-hitting soul from the world's greatest record label, specially chosen by Motown historian and writer Steve Devereux. 8224 MHz | 56:15 minutes | Scans included | 4,04 GBor FLAC 2. 15 submissions pending; Share. Motown Records (Motown Records) is an American record company, currently part of the Universal Music Group. Total Size: 3. Cat# Artist Title (Format) Label Cat#. All In Love is Fair 4. MOTOWN MAGIC follows Ben, a wide-eyed eight-year-old with a big heart and an amazing imagination, who uses his magic paintbrush to bring the street-art decorating his city, Motown, to life. Simple Way to Listen / Download The Complete Motown Singles Vol. Various - Największe Hity Przebojów Kinowych MP3 album ZIP archive. Preview, buy and download high-quality music downloads of Hello World - The Motown Solo Collection by Michael Jackson from 7digital United Kingdom - We have over 30 million high quality tracks in our store. 84 GB (ISO) + 3. Album The Complete Motown Singles - Vol. By the middle of the year, all Detroit operations closed and Motown now belonged to Los Angeles, and this five-disc box set chronicles the first six months of 1972, the time when Motown was in transition. 2 GB: 0: 0: unknown: Complete Motown Singles Vol 4 (1964). Year Title Artist Type Rating Releases; 1: 2005: The Complete Motown Singles, Volume 1: 1959-1961: Various Artists: Album + Compilation: 2: 2: 2005: The Complete. 100 Greatest Breakfast Songs (2019) Flac. 8MHz/64fs Download DSD Multichannel 2. Quality: FLAC 16 bit / 44. Baby, It's You 13. MOTOWN MAGIC follows Ben, a wide-eyed eight-year-old with a big heart and an amazing imagination, who uses his magic paintbrush to bring the street-art decorating his city, Motown, to life. 1's Disc3\18 - Ain't No Mountain High Enough. 磁力文件Kim Weston - The Motown Anthology (2005) [flac]创建于2019-06-08,大小为804. Motown Greatest Hits (2019) MP3 Driven By The 60s: 100 Essential Driving Songs (5CD) (2019) Flac Todd Rundgren - The Complete Bearsville Albums Collection (13CD Box) (2016) Flac. Highlighting the founding years of Motown, the album celebrates icons such as The Temptations, Marvin Gaye, Smokey Robinson & the Miracles, The Supremes, Martha Reeves & The Vandellas, Stevie Wonder, and more. Play Me Some Motown (Radio Edit) plus high-quality download in MP3, FLAC and more. 1 1959-1971 [4 CD] (1992) FLAC Essential Rare Grooves (2018) FLAC The Doobie Brothers) - Motown 2 (2004) SACD + Hi-Res. Gladys Knight and the Pips join Motown records. Artist: Various Artists Title Of Album: The Complete Motown Singles - Vol 12B: 1972 Year Of Release: 2013 Label (Catalog#): Hip-O Select [B0019213-02] Country: International Genre: Soul, Funk, Rhythm & Blues, Soul Rock Quality: FLAC (*tracks,cue,log) Bitrate: Lossless Time: 5:37:07 Full Size: 2. r] Year : 2009 Genre : Electronic , Soul , Funk , Synth-pop , Disco. 100 Hits: The Best 60s / Various by VARIOUS ARTISTS Audio CD $9. nz/#!s14ADAzA!uXPW350i-Aci_v7wLS0zWtpagRLgwNoSDCVseJ9fx64. Four Tops - Reach Out I'll Be There flac mp3 album; Smokey Robinson And The Miracles - The Tears Of A Clown / You Must Be Love flac mp3 album; Brenda Holloway - Greatest Hits & Rare Classics flac mp3 album; Various - Tamla Motown Big Hits And Hard To Find Classics - Volume One flac mp3 album. The Classic Of Diana Ross flac download Diana Ross & The Supremes - Diana Ross & The Supremes flac download Diana Ross - Diana's Duets flac download Various - Love Motown flac download. Each 11-minute episode incorporates a plotline inspired by the themes and characters of a classic Motown song, and an original version of that song covered. Regular mp3s are dominating the market and it's pretty hard to find music in Lossless (FLAC) format. This article presents the discography of Motown group The Temptations. Hobos Locos! by Motown Stompers, released 10 November 2015 1. Michael Jackson - Dear Michael Box The Motown Collection (12 Cds FLAC) CD 1 - Got To Be There / Ben - Hello Wold: The Motown Solo Collection 1. 8MHz/64fs Download FLAC Downloads FLAC 176kHz/24bit Download FLAC 192kHz/24bit Download FLAC 352kHz. As the first record label created by African American Berry Gordy, Motown-Tamla specialized in promoting black artists to the mainstream of world pop music. Marvin Gaye - Hitsville: The Making Of Motown (Original Motion Picture Soundtrack / Deluxe) 24 bit Hi-Res. FREE Shipping on orders over $25. On our site you can download lossless music for free and without registration, favorite performers in flac format, for fans to listen to vinyl digitization - Vinyl rip, gourmets of the music world who want to listen to. 0 Tracklist: 01. cue), lossless Since the arrival of Erykah Badu onto the neo-soul scene back in 1997 with Baduizm, commercial music stood up and took notice with an onslaught of similar artists reaching comparable peaks of mainstream success. 16 GB | 3% RAR Recovery Label: Universal / Motown | Ukraine | Cat#: 0602498632260 | Genre: R&B. Release Name: VA-Motown_Greatest_Hits-3CD-FLAC-2019-401 Artist: VA Album: Motown Greatest Hits Genre: Soul Year: 2019 Tracks: 19 Duration: 03:28:45 Size: 1. The group's style evolved into a very funky sound, particularly between the mid '60s and the early '70s, when producers like Norman Whitfield came into the fold. top/file/Chuck Jackson - Motown Rarities (2020) Flac. flac" WAVE TRACK 18 AUDIO TITLE "Ain't No Mountain High Enough" PERFORMER "Diana Ross" INDEX 01 00:00:00 FILE "Various\MOTOWN - The Complete NO. 1989 downloads at 21 mb/s. All of these collectable CD Box sets are in superb condition apart from Vol 7 where one of the CD's has a few minor scuffs The Boxes are all Excellent with very. 11MB ) Motown Singles - CD19-21 - Oma Heard - Lifetime Man. While waiting for Stevie Wonder's Hotter Than July follow up, the largest album for Motown that year likely was Lionel Richie's Can't Slow Down, which was a world. ag, download, bittorrent, torrent, torrents. cue / 100% log Bitrate: lossless Sample Rate: 16bit/44. 1]PS3 Rip | ISO | DST 64 2. Four Tops - Reach Out I'll Be There flac mp3 album; Smokey Robinson And The Miracles - The Tears Of A Clown / You Must Be Love flac mp3 album; Brenda Holloway - Greatest Hits & Rare Classics flac mp3 album; Various - Tamla Motown Big Hits And Hard To Find Classics - Volume One flac mp3 album. 1kHz] 3 CDS (2008) FLAC R & B 11-09-2019, 07:40 The Stephen Kummer Trio with The Chris McDonald Orchestra - Christmas in the City (2005) FLAC (image +. 0 Tracklist: 01. This article presents the discography of Motown group The Temptations. 8MHz/64fs Download DSD Multichannel 2. A decade earlier, Motown dipped their toe in the water with the jumbled Back to Front, which tried desperately to camouflage its nature as a comp with three new songs, which, at 14 tracks, hurt the hit quotient dramatically. After The Dance 4. Albums related to A Loss For Words - Motown Classics. 12A: 1972, the Four Tops sing "L. 84 GB (ISO) + 3. During this time, the group recorded more hit singles, including "I Feel a Song (In My Heart)", "Part-Time Love", "Love Finds Its Own Way" and the live recording, "The Way We Were/Try to Remember". 0 (converted with foobar2000 to tracks) 24bit/48 kHz | Full Scans included | 806 MB Blue-eyed soul crooner Michael McDonald gave his career a much-needed shot in the arm with 2003's Motown, a commercially well-received collection that matched the one. Download Motown Unreleased: 1969 by Various Artists in high-resolution audio at ProStudioMasters. Mary Wells - Bye Bye Baby 2. In Our Small Way - 03:41 5. Motown Junkies presents "Discovering Motown" a Motown radio show. Charles Davis - Ingia! (Strata-East) Mediafire mp3. 1 kHz Tracklist: 01. Download Hitsville: The Making Of Motown (Original Motion Picture Soundtrack) by Various Artists in high-resolution audio at ProStudioMasters. The Very Best Of Marvin Gaye Flac Torrent >>> DOWNLOAD. The Isley Brothers x Calvin Harris - This Old Slide 4. VA - Motown Greatest Hits (3CD, 2019) Flac tracks | 3:31:50 | 1,3 Gb Genre: Funk, Soul, R&B / Label: Universal Music 2019 marks the 60th year of MOTOWN, widely regarded as the greatest, most successful and best loved record label in music and to commemorate this landmark anniversary Motown will be issuing a brand new Greatest Hits compilation featuring 60 tracks from across their enormously. HTTP download also available at fast speeds. cue / 100% log Bitrate: lossless Sample Rate: 16bit/44. 1's Disc3\19 - I'll Be There. 1 kHz (Tracks) Artist: Various Artists. Filthy Cur Hard Time Walkin' Talkin' Blues 5. How to Listen / Download The Complete Motown Singles Vol. Ne-Yo - Another Kind Of Christmas (2019) {Compound Entertainment/Motown} EAC Rip | FLAC | scans | 235 mb MP3 CBR 320 kbps | RAR | 83 mb Genre: Christmas, soul, R&B. Albums related to A Loss For Words - Motown Classics. 10 GB (FLAC Mch) + 1. 1 kHz (Tracks) Artist: Various Artists Title: Motown Meets The Beatles Released: 1995 Style: Soul, Funk, R&B RAR Size: 380 Mb Tracklist: 1. Michael Jackson - Dear Michael Box The Motown Collection (12 Cds FLAC) CD 1 - Got To Be There / Ben - Hello Wold: The Motown Solo Collection 1. 0 Total Size: 1. Fingertips, Part 2 -. A couple of years later, the name was changed. Baby, I Love You 5. 12A: 1972 Umělec Různí interpreti Ke stažení ve formátu MP3 a FLAC Obsahuje hity ♫ Money ♫ Shadow ♫ L. Motown, The Complete No. # DOWNLOAD LINK: megafile3. 47 MB,包含52个文件. 24 GB 2019 marks the 60th year of MOTOWN, widely regarded as the greatest, most successful and best loved record label in music and to commemorate this landmark anniversary Motown will be issuing a brand new Greatest Hits compilation. 5/5 Votes: 422 Format: MP3 FLAC MOD AAC DXD MP3 AIFF AHX MP1. 09:26 Just My Imagination. With Michael Jackson, Jackson 5, Berry Gordy, Suzanne De Passe. Ships from and sold by Amazon. 6MHz/128fs Download DSD (Quad Rate) 11. Each 11-minute episode incorporates a plotline inspired by the themes and characters of a classic Motown song, and an original version of that song covered. cc, extratorrent ag, extratorrent. flac" WAVE TRACK 19 AUDIO TITLE "I'll Be There" PERFORMER "The Jackson 5" INDEX 01 00:00:00. HTTP download also available at fast speeds. flac 05 - You've Lost That Lovin' Feelin'. top/file/Chuck Jackson - Motown Rarities (2020) Flac. Artists: Various Artists Album: The Complete Motown Singles Volume 12 A-B (10 CD, Collection, 1972) Year Release: 2013 Genre: RB, soul, rock Audio: FLAC, 436-503 kbps 11:47:04 3,85 GB -585- Tracklists: CD-01. C) Motown a Division of UM. AvaxHome Vinyl & HR category is a place where you can download music with absolutely no compression in Hi-Res FLAC format. One of the most dominating forces in the history of popular music, the Motown imprint was more than a label, it was a juggernaut of soul music, a machine so finely honed and working with such efficiency that it wasn’t uncommon for several chart topping hits to be recorded in one session. Various Artists – Motown Love Released: 2009 Genre: R&B, Soul Bitrate: MP3 320 KBPS. Thirty-seven of their singles reached the Billboard Top 40 in the US, with four of them reaching #1. Release information about Michael_Mcdonald-Motown_Two-CD-FLAC-2004-FLACME. The Supremes - Where Did Our Love Go (02:31) / 2019, 24bit WEB, Various Artists, KaRaMusic. Tracklist: Disc 1: 1 End Of The RoadBoyz II Men 2 Isn't She LovelyStevie Wonder 3 HelloLionel Richie 4 Where Is The LoveRita Wright 5 How Sweet It Is (To Be Loved By You)Marvin Gaye 6 I Second That EmotionSmokey Robinson & The Miracles 7 Remember MeDiana Ross. Diana Ross & The Supremes - For Once In My Life 02:5302. 12A: 1972, the Four Tops sing "L. Mary Wells - I'm So Sorry 5. MP3 320 | FLAC(tracks) | 2h 12 min | Genre: Pop, RB, Soul | 311 881 MB Disc: 1 1. VA - 101 Motown Anthems (2017) EAC Rip | FLAC (tracks & cue & log) -> 2. Tracklist:. 14:25 Ain't No Woman (Like The One I Got) 20:40 Inner City Blues. After reading, remove the material and purchase licensed version Music lossless for lovers of good sound. Although Motown artists were more soul than straight-up funk, all of their albums and singles were featured the legendary Funk Brothers studio band. Preview, buy and download high-quality music downloads of Lost Without You: Motown Lost & Found by Four Tops from 7digital United Kingdom - We have over 30 million high quality tracks in our store. Each 11-minute episode incorporates a plotline inspired by the themes and characters of a classic Motown song, and an original version of that song covered. Michael McDonald - Motown Two (2004) {SACD ISO + FLAC 24bit/88,2kHz} Posted by mqs / Posted 4 years ago September 1, 2016 Michael McDonald - Motown Two (2004) [2. and incorporated as Motown Record Corporation in Detroit, Michigan, United States, on April 14, 1960. Motown, The Complete No. Listen to this and millions more tracks online. Hand-picked hits, harmonies and hard-hitting soul from the world's greatest record label, specially chosen by Motown historian and writer Steve Devereux. The Elgins - The Motown Anthology (2007) FLAC Dionne Warwick - Collection 1963-1977 (23 Albums Mini LP CD Remastered) (2013) FLAC La Soul C'etait Mieux Avant (5CD) (2017) FLAC. VA - Motown 50° Greatest Hits Collection - Let's Dance (2009) FLAC Marvin Gaye - The Best Of Marvin Gaye Volume 2: The 70's (2000) FLAC Marvin Gaye - The Best Of Marvin Gaye Volume 1: The '60s (1999) FLAC. Sweet and Sexy Thing". Each 11-minute episode incorporates a plotline inspired by the themes and characters of a classic Motown song, and an original version of that song covered. The selections on this compilation were transferred from the original single mixes, which were mixed for AM radio play and 45 RPM singles. After reading, remove the material and purchase licensed version Music lossless for lovers of good sound. 8224 MHz | 56:15 minutes | Scans included | 4,04 GBor FLAC 2. Get Ready - The Temptations 2. 1]PS3 Rip | ISO | DST 64 2. Hitsville: The Making Of Motown (Original Motion Picture Soundtrack / Deluxe) (2019, 24 bit Hi-Res Web Flac) - Release Date: 2019 Audio Codec: Flac Rip Type: tracks Bitrate: lossless Audio Channels: 2. 24 GB | Genre: Soul Tracks: 19 | Source: Scene. Each 11-minute episode incorporates a plotline inspired by the themes and characters of a classic Motown song, and an original version of that song covered. Download Diana Ross - Motown's Greatest Hits (1992)@flac torrent for free, HD Full Movie Streaming Also Available in Limetorrents. MOTOWN MAGIC follows Ben, a wide-eyed eight-year-old with a big heart and an amazing imagination, who uses his magic paintbrush to bring the street-art decorating his city, Motown, to life. Experience the excellence of Losslessdl. My World Is Empty Without You (03:06) 02. FLAC 16 bit / Soul / Funk / RnB / Collection Best Hits 1-11-2019, 03:10 589 0 aleXs All albums Various Motown Quality: FLAC 16 bit / 44. By the end of 1965, Berry Gordy was scouting to get the group signed to his fabled Motown Records label. Various Artists - Motown Love Released: 2009 Genre: R&B, Soul Bitrate: MP3 320 KBPS. Barrett Strong - Money (That's What I Want) - Barrett Strong 2. February 2011, 15:48 Michael Jackson & Jackson 5 / The Motown Years CD1. Diana Ross & The Supremes - For Once In My Life 02:5302. 1 GB | Covers included | 05:53:15 Genre: Soul, R&B, Funk, Disco | Label: Spectrum Music / Universal 101 Motown Anthems Various Artists INCLUDING The Jackson 5, The Supremes, Martha & the Vandellas, Marvin Gaye, Diana Ross, The Isley Brothers, Smokey Robinson & the Miracles, The Four Tops, Stevie Wonder, The. Thirty-seven of their singles reached the Billboard Top 40 in the US, with four of them reaching #1. Ships from and sold by Amazon. The Elgins - The Motown Anthology (2007) FLAC Dionne Warwick - Collection 1963-1977 (23 Albums Mini LP CD Remastered) (2013) FLAC La Soul C'etait Mieux Avant (5CD) (2017) FLAC. I Wanna Be Where You Are - 03:02 3. 12A: 1972, the Four Tops sing "L. Various - Motown Hits Of Gold Vol. HTTP download also available at fast speeds. Download Motown Anthems [4CD Box Set] (2012) FLAC or any other file from Music category. Download Hitsville: The Making Of Motown (Original Motion Picture Soundtrack) by Various Artists in high-resolution audio at ProStudioMasters. Martha & The Vandells x Childish Gambino x Nick Bike - Redbone In The Street (Maitre D's Stolen Bike Edit) 3. View full schedule. Ain't No Mountain High Enough" is an R&B/soul rock song written by Nickolas Ashford & Valerie Simpson in 1966 for the Tamla label, a division of Motown. A central player in Detroit since the days of the Direct Drive DJ tag team, Mr Clark is hot property - it was Clark who programmed the drums on early UR material, fuelling Mike Banks' Red Planet series, going on to release on Planet E amongst others. Download new club compilation Motown Greatest Hits (2019) MP3 from Clubmusicdownload. 12A 1972 (2013) + flac 14 Days Free Access to USENET! Free 300 GB with Full DSL-Broadband Speed!. Motown by Smooth Jazz Sax Instrumentals, released 24 February 2010 1. Download flac lossless music free. I'm Still Here by Follies. On our site you can download lossless music for free and without registration, favorite performers in flac format, for fans to listen to vinyl digitization - Vinyl rip, gourmets of the music world who want to listen to. FILE "Various\MOTOWN - The Complete NO. "Fate knows the answer that you'd like to know…might as well face him in style…" 1981's To Love Again was an interesting half-new, half-compilation album that traced the musical partnership between Diana Ross and writer-produced Michael Masser. 76MB ) Motown Singles - CD61-01- Messengers - That's The Way A Woman Is. 6MHz/128fs Download DSD (Quad Rate) 11. Posts about Previously Unreleased Tracks written by Paul. Losslessdl - Download High Definition Music Free. February 2011, 15:48 Michael Jackson & Jackson 5 / The Motown Years CD1. Soul! - The Very Best Of Motown [4 CD set] Soul! - The Very Best Of Motown (4 CD set) CD1----- 01 - The Marvelettes - Too Many Fish In The Sea. Sweet and Sexy Thing". 1 kHz Tracklist: 01. All tracks composed by Rick James. His pedigree is gloriously-evident as he opens with. 48MB The Complete Motown Singles Volume 03 (1963) Disc. The Complete Motown Singles. Album The Complete Motown Singles - Vol. Baby, I Love You 5. 47 MB,包含52个文件. Ö3 Greatest Hits Vol. cue / 100% log Bitrate: lossless Sample Rate: 16bit/44. Title: The Complete Motown Recordings 1964-1965 ; Artist: Dorsey Burnette; Genre: Pop, Box Sets; Label: Motown ; Release Date: 2014 ; Notes: Tracks 7, 8, 10 & 11 are 48khz/24bit sources mastered to 96khz/24bit files. Here I Am Baby (02:49). Great collection of 60s Tamla Motown - but not sure what Spectrum have done (or not done)? I would question the source material used for these CDs and the (very) soft levels are all over the place which greatly reduces the listening pleasure. Motown, The Complete No. Genres: FLAC 16 bit / Soul / Funk / RnB / Collection Best Hits 10-11-2019, 12:02 391 aleXs. 2 covers 1962, when Motown was beginning to gain momentum but had not yet turned into the hitmaking machine it would be in just a short year. 02 - The Contours - Do You Love Me. Mary Wells - I Don't Want To Take A Chance 4. The Supremes - Where Did Our Love Go (02:31) 02. 74MB; The Complete Motown Singles - [ANT] 13. Albums related to A Loss For Words - Motown Classics. Simple Way to Listen / Download The Complete Motown Singles Vol. Christine Elizabeth Clark (born February 1, 1946), better known as Chris Clark, is an American soul, jazz, and blues singer, who recorded for Motown Records. Artist: Various Artists Title Of Album: The Complete Motown Singles - Vol 12B: 1972 Year Of Release: 2013 Label (Catalog#): Hip-O Select [B0019213-02] Country: International Genre: Soul, Funk, Rhythm & Blues, Soul Rock Quality: FLAC (*tracks,cue,log) Bitrate: Lossless Time: 5:37:07 Full Size: 2. Albums related to Various - Motown Superstars Presents Tribute To The Beatles. Directed by Spike Lee. Kenny Hawkins is tearing it up on lead. Michael McDonald - Motown (2003) [2. Format: VBR V0 MP3, FLAC [View Comments To Listen] Following Second To Nunn in 1983 comes Private Party, singer/songwriter Bobby Nunn's sophomore effort for Motown Records. Thirty-seven of their singles reached the Billboard Top 40 in the US, with four of them reaching #1. Each 11-minute episode incorporates a plotline inspired by the themes and characters of a classic Motown song, and an original version of that song covered. Release Name: VA-Motown_Greatest_Hits-3CD-FLAC-2019-401 Artist: VA Album: Motown Greatest Hits Genre: Soul Year: 2019 Tracks: 19 Duration: 03:28:45 Size: 1. flac) Тип рипа: tracks+. Motown Greatest Hits Year Of Release: 2019 Genre: Soul Format: Flac, Tracks +. flac 04 - How Sweet It Is (To Be Loved By You). 1kHz] 3 CDS (2008) FLAC. Various - Tamla Motown 45 - latest mp3, flac album version. Free To Be Me". 1]PS3 Rip | ISO | DST 64 2. We Can Work It Out - Stevie Wonder. Rockin' Robin. flac" WAVE TRACK 19 AUDIO TITLE "I'll Be There" PERFORMER "The Jackson 5" INDEX 01 00:00:00. All materials on the site are provided for informational purposes only. Are Ya Gonna Eat That? 7. 36 MB Blue-eyed soul crooner Michael McDonald gave his career a much-needed shot in the arm with 2003's Motown, a commercially well-received collection that matched the one-time Doobie Brother and '80s solo star's rich vocals. First Preview 3/11/2013 Opening Date 4/14/2013 Closing Date 1/18/2015 Cast Creative Production Photos Videos Reviews Buy Tickets All Grosses. Martha & The Vandells x Childish Gambino x Nick Bike - Redbone In The Street (Maitre D's Stolen Bike Edit) 3. Gladys Knight and the Pips join Motown records. 08 GB Genre: Motown, Pop-Soul, Disco, Urban | Label: Motown, A Universal Music Company. Various Artists - Now That's What I Call Motown! flac album. Various - Motown Hits Of Gold Vol. 2017 registriert haben, können sich mit den ihnen bekannten Zugangsdaten einloggen. Piratebay and mediafire. Baby, It's You 13. Korn - Korn Rock music. cue), lossless Since the arrival of Erykah Badu onto the neo-soul scene back in 1997 with Baduizm, commercial music stood up and took notice with an onslaught of similar artists reaching comparable peaks of mainstream success. Total Size: 3. Release Name: Michael_Mcdonald-Motown_Two-CD-FLAC-2004-FLACME Artist: Michael McDonald Album: Motown Two Genre: Rock Year: 2004 Tracks: 14 Duration: 00:49:53 Size: 361. Edit Label ; Data Quality Rating: Needs Vote. VA-Motown_Greatest_Hits-3CD-FLAC-2019-401 FLAC (tracks) 16 bit/ 44,1kHz | Time - 03:28:45 minutes | 1. Hitsville USA: The Motown Singles Collection 1959–1971 is a 1992 four-CD collection of Motown hits, during Motown's golden age when the songs were recorded at its original Detroit studio. Losslessdl - Download High Definition Music Free. The Complete Motown Singles. ag, download, bittorrent, torrent, torrents. Hitsville: The Making Of Motown (Original Motion Picture Soundtrack / Deluxe) (2019, 24 bit Hi-Res Web Flac) - Release Date: 2019 Audio Codec: Flac Rip Type: tracks Bitrate: lossless Audio Channels: 2. 09:26 Just My Imagination. Released May 17, 2019 A Motown Records Release; This Compilation ℗ 2019 UMG Recordings, Inc. Barrett Strong - Money (That's What I Want). Highlighting the founding years of Motown, the album celebrates icons such as The Temptations, Marvin Gaye, Smokey Robinson & the Miracles, The Supremes, Martha Reeves & The Vandellas, Stevie Wonder, and more. Christine Elizabeth Clark (born February 1, 1946), better known as Chris Clark, is an American soul, jazz, and blues singer, who recorded for Motown Records. The Contours - Do You Love Me. Mary Wells - Bye Bye Baby 2. Artist: Various ArtistsAlbum: Motown Unreleased 1969 Label: UNI - MOTOWNReleased: 2019Genre: R&BCountry: WorldDuration: 03:15:06Tracklisting:01. 1 kHz (Tracks) Artist: Various Artists Title: Motown Meets The Beatles Released: 1995 Style: Soul, Funk, R&B RAR Size: 380 Mb Tracklist: 1. flac 04 - How Sweet It Is (To Be Loved By You). VA - Motown The Musical Originals - 40 Classic Songs That Inspired The Broadway Show! (2015) FLAC/MP3; VA - The Motown Story (2006) VA - Motown The Musical: 40 Classic Songs That Inspired the Musical! (2016) VA - Motown Classics Gold (2005) VA - Hitsville The Making Of Motown (2CD, 2019) Various Artists - Motown Greatest Hits (2019). Walk In The Night: The Motown 70s Studio Albums by Jr. ERYKAH BADU - Mama's Gun [2000] Motown / FLAC (tracks+. 1 kHz (Tracks) Artist: Various Artists. Magic at the Musicals. Disc 1: 1 End Of The RoadBoyz II Men 2 Isn't She LovelyStevie Wonder 3 HelloLionel Richie 4 Where Is The LoveRita Wright 5 How Sweet It Is (To Be Loved By You)Marvin Gaye. Vinyl and CD 1 - 14 of 14. A couple of years later, the name was changed. 2017 registriert haben, können sich mit den ihnen bekannten Zugangsdaten einloggen. The best place where you can find and download great music in lossless formats, MP3, free. 0 Total Size: 1. VA - Motown Greatest Hits - 3CD - 2019 (FLAC) File format: FLAC (Tracks) Quality: Lossless Frequency: 44,100 khz Genre: Funk, Soul, R&B Disc: 1 1. Release Name: Michael_Mcdonald-Motown_Two-CD-FLAC-2004-FLACME Artist: Michael McDonald Album: Motown Two Genre: Rock Year: 2004 Tracks: 14 Duration: 00:49:53 Size: 361. flac 02 - Got To Be There (Single Version). The Very Best Of Marvin Gaye Flac Torrent >>> DOWNLOAD. Profile: Series Parent Label: Hip-O Select [l559336] Label. On the R&B singles chart, the group scored a record seventy-one Top 40 singles, with fourteen of those reaching #1. Artist: Various Album's title: The Tamla - Motown Sound! Label: Tamla Motown ‎- 5C 048-90836, Tamla Motown ‎- STML 11055 Type: Vinyl, LP, Compilation, Reissue, Stereo Country: Netherlands Date of released: Category: Funk / Soul Style: Soul ZIP Size MP3: 1689 mb ZIP Size FLAC: 1860 mb Rating: 4. # B0015820-02 | Released: 2011-09-20. Various - Top 10 With A Bullet! Motown Love Songs / Motown Dance! album mp3 flac. 24 GB | Genre: Soul Tracks: 19 | Source: Scene. flac 04 - How Sweet It Is (To Be Loved By You). 01MB ) Motown Singles - CD53-21 - Danny Hernandez & The Ones - As Long As I've Got You. Tracklist: Disc 1: 1 End Of The RoadBoyz II Men 2 Isn’t She LovelyStevie Wonder 3 HelloLionel Richie 4 Where Is The LoveRita Wright 5 How Sweet It Is (To Be Loved By You)Marvin Gaye 6 I Second That EmotionSmokey Robinson & The Miracles 7 Remember MeDiana Ross. Free To Be Me". Various Artists Motown Greatest Hits (3CD) Released: 2019 Encoded: 320 Kbps MP3 2019 marks the 60th year of MOTOWN, widely regarded as the greatest, most successful and best loved record label in music and to commemorate this landmark anniversary Motown will be issuing a brand new Greatest Hits compilation featuring 60 tracks from across their enormously influential and remarkable history. The Complete MOTOWN SINGLES [FLAC] 14 BOX SET -69 CD'S Various-The Complete Motown Singles | Vol. The Supremes / Baby Love / The Collection Жанр: Soul, R&B, Pop/Rock, Motown Страна-производитель диска: UK Год издания: 2012 Издатель (лейбл): Spectrum Music Номер по каталогу: SPEC2086 Страна: USA Аудиокодек: FLAC (*. VA - Motown: The Early Years 1959-62 (2020)(Flac) kaschi. 1 GB | Covers included | 05:53:15 Genre: Soul, R&B, Funk, Disco | Label: Spectrum Music / Universal 101 Motown Anthems Various Artists INCLUDING The Jackson 5, The Supremes, Martha & the Vandellas, Marvin Gaye, Diana Ross, The Isley Brothers, Smokey Robinson & the Miracles, The Four Tops, Stevie Wonder, The Temptations. Clark became known to Northern Soul fans for hit songs such as 1965's "Do Right Baby Do Right" (by Berry Gordy) and 1966's "Love's Gone Bad" (Holland-Dozier-Holland). More of the Songs You Love. All In Love is Fair 4. Album The Complete Motown Albums Umělec Rick James Ke stažení ve formátu MP3 a FLAC Obsahuje hity ♫ 17 ♫ Glow ♫ Unity Ukázky zdarma k poslechu. 83 (2018) 101. Album's title: The Tamla - Motown Sound! Label: Tamla Motown ‎– 5C 048-90836, Tamla Motown ‎– STML 11055 Type: Vinyl, LP, Compilation, Reissue, Stereo Country: Netherlands Date of released: Category: Funk / Soul Style: Soul ZIP Size MP3: 1689 mb ZIP Size FLAC: 1860 mb Rating: 4. 12A: 1972, the Four Tops sing "L. VA - Motown Greatest Hits (3CD, 2019) Flac tracks | 3:31:50 | 1,3 Gb Genre: Funk, Soul, R&B / Label: Universal Music 2019 marks the 60th year of MOTOWN, widely regarded as the greatest, most successful and best loved record label in music and to commemorate this landmark anniversary Motown will be issuing a brand new Greatest Hits compilation featuring 60 tracks from across their enormously. My World Is Empty Without You (03:06) 02. Joint and a Shot 4. Four Tops - Reach Out I'll Be There flac mp3 album; Smokey Robinson And The Miracles - The Tears Of A Clown / You Must Be Love flac mp3 album; Brenda Holloway - Greatest Hits & Rare Classics flac mp3 album; Various - Tamla Motown Big Hits And Hard To Find Classics - Volume One flac mp3 album. This article presents the discography of Motown group The Temptations. Discover, listen and buy the latest Motown MP3 downloads online from zdigital Australia - Choose from more than 19 million high quality DRM-free music tracks in our store. 1kHz] 3 CDS (2008) FLAC R & B 11-09-2019, 07:40 The Stephen Kummer Trio with The Chris McDonald Orchestra - Christmas in the City (2005) FLAC (image +. ALAC Downloads ALAC 176kHz/24bit Download ALAC 192kHz/24bit Download ALAC 44kHz/24bit Download DSD Downloads DSD (Double Rate) 5. 1 kHz (Tracks) Artist: Various Artists. Buy, preview and download over 30 million tracks in our store. ERYKAH BADU - Mama's Gun [2000] Motown / FLAC (tracks+. We are delighted to offer every volume of the Complete Motown Singles CD Box sets from the recent collection that we are processing. Album The Complete Motown Albums Umělec Rick James Ke stažení ve formátu MP3 a FLAC Obsahuje hity ♫ 17 ♫ Glow ♫ Unity Ukázky zdarma k poslechu. 9: 1969 by Various Artists in mp3, FLAC, ogg, zip album and other supported formats. FLAC 16 bit / Soul / Funk / RnB / Collection Best Hits 10-11-2019, 12:02 384 0 aleXs All albums Various Motown Quality: FLAC 16 bit / 44. Title: The Complete Motown Recordings 1964-1965 ; Artist: Dorsey Burnette; Genre: Pop, Box Sets; Label: Motown ; Release Date: 2014 ; Notes: Tracks 7, 8, 10 & 11 are 48khz/24bit sources mastered to 96khz/24bit files. ZIP RAR archives available. Free To Be Me". Tracklist: Disc 1: 1 End Of The RoadBoyz II Men 2 Isn't She LovelyStevie Wonder 3 HelloLionel Richie 4 Where Is The LoveRita Wright 5 How Sweet It Is (To Be Loved By You)Marvin Gaye 6 I Second That EmotionSmokey Robinson & The Miracles 7 Remember MeDiana Ross. 10 GB (FLAC Mch) + 1. Walker & The All Stars - Riding / 2019, Lossless, WEB Flac, KaRaMusic. FLAC (CD RIP) Motown Greatest Hits (2019) Style: Soul Release Date: 2019 RAR / ZIP Size: 485 MB Flac. Direct download via HTTP available as well. Ain't No Mountain High Enough" is an R&B/soul rock song written by Nickolas Ashford & Valerie Simpson in 1966 for the Tamla label, a division of Motown. 84 GB (ISO) + 3. Quality: FLAC 16 bit / 44. Michael Jackson - Hello World - The Motown Solo Collection [Qobuz CD 16bits/44. 12A: 1972 Umělec Různí interpreti Ke stažení ve formátu MP3 a FLAC Obsahuje hity ♫ Money ♫ Shadow ♫ L. 2: 1962 - Various Artists on AllMusic - 2005 - Picking up where the first volume of Hip-O…. FILE "Various\MOTOWN - The Complete NO. Various - Rum Punch - Hip Swinging Classics album mp3 flac Folk, Country. Walker & The All Stars (2019, WEB Flac) - Release Date: 2019 Audio Codec: Flac Rip Type: tracks Bitrate: lossless Sample Rate: 16 Bit/44. MOTOWN MAGIC follows Ben, a wide-eyed eight-year-old with a big heart and an amazing imagination, who uses his magic paintbrush to bring the street-art decorating his city, Motown, to life. The original Motown Chartbusters (LPs) were massive in the UK and deserve far better sound. Thirty-seven of their singles reached the Billboard Top 40 in the US, with four of them reaching #1. The Supremes - Where Did Our Love Go (02:31) 02. 74MB; The Complete Motown Singles - [ANT] 13. Play Me Some Motown (Radio Edit) plus high-quality download in MP3, FLAC and more. Stubborn Kind Of Fellow - Marvin Gaye 6. 3 Popular music albums MP3 and FLAC download free. Mary Wells - Bye Bye Baby 2. The website contains a selection of high-quality archive. Mary Wells - I Don't Want To Take A Chance 4. flac" WAVE TRACK 19 AUDIO TITLE "I'll Be There" PERFORMER "The Jackson 5" INDEX 01 00:00:00. We Can Work It Out - Stevie Wonder. Motown, The Complete No. VA - The Complete Motown Singles - Vol. Here I Am Baby (02:49). Fast Break was not a successful film, but the single was released on Motown in Europe and started to sell, entering the UK charts on 15 December 1979 in the anchor position of the top 75. Albums related to A Loss For Words - Motown Classics. The Complete Motown Singles, Vol. 8MHz/64fs Download DSD Multichannel 2. His pedigree is gloriously-evident as he opens with. 08 GB Genre: Motown, Pop-Soul, Disco, Urban | Label: Motown, A Universal Music Company. LATEST EPISODES: Episode 75. flac 05 - You've Lost That Lovin' Feelin'. 14:25 Ain't No Woman (Like The One I Got) 20:40 Inner City Blues. ARTIST: VA ALBUM / TITLE: Motown Greatest Hits (3CD) RELEASE YEAR / DATE: 2019 COUNTRY: International STYLE: Funk, Soul, Rhythm n Blues LABEL: Universal Music DURATION: 03:37:13 FILE FORMAT: FLAC SIZE :1,4 GB TRACKLIST : Show/hide textDISC: 11. Motown People. Ain't No Woman (Like The One I Got) 3. Various Artists - Motown Love Released: 2009 Genre: R&B, Soul Bitrate: MP3 320 KBPS. April 2020 ~ ACHTUNG ~ Alle User, die sich bis einschl. Hitsville USA: The Motown Singles Collection 1959-1971 is a 1992 four-CD collection of Motown hits, during Motown's golden age when the songs were recorded at its original Detroit studio. The label and its various subsidiaries were beginning to gel, beginning to polish what would become immediately identifiable as the Motown. Walker & The All Stars (2019, WEB Flac) - Release Date: 2019 Audio Codec: Flac Rip Type: tracks Bitrate: lossless Sample Rate: 16 Bit/44. After The Dance 4. Dancing In The Street - Martha The Vandellas 3. Various - Największe Hity Przebojów Kinowych MP3 album ZIP archive. View full schedule. Discover what's missing in your discography and shop for The Complete Motown Singles releases. Year Title Artist Type Rating Releases; 1: 2005: The Complete Motown Singles, Volume 1: 1959-1961: Various Artists: Album + Compilation: 2: 2: 2005: The Complete. Total Size: 3. Request for ceee43 Stevie Wonder - Part-Time Lover (Vinyl 12″ Single - 1985) https://mega. 1989 downloads at 21 mb/s. 9: 1969 by Various Artists in mp3, FLAC, ogg, zip album and other supported formats. This Masquerade 7. 24 GB | Genre: Soul Tracks: 19 | Source: Scene. Motown Singles - CD60-01 - Marvin Gaye - Mercy Mercy Me (The Ecology). Paul's here in the afternoon to play you the best of Soul and Motown. 68 MB - VA - Motown Christmas 2008 CD1 [EAC-FLAC](oan) - 01 - Wonder, Stevie - What Christmas Means To Me. Gladys Knight and the Pips join Motown records. Where Is The Love? 10. Each 11-minute episode incorporates a plotline inspired by the themes and characters of a classic Motown song, and an original version of that song covered. Eleanor Rigby - The Four Tops 3. Album's title: The Tamla - Motown Sound! Label: Tamla Motown ‎– 5C 048-90836, Tamla Motown ‎– STML 11055 Type: Vinyl, LP, Compilation, Reissue, Stereo Country: Netherlands Date of released: Category: Funk / Soul Style: Soul ZIP Size MP3: 1689 mb ZIP Size FLAC: 1860 mb Rating: 4. ZIP, RAR archives download free. The Supremes - For Once In My Life (02:53) 02. Baby, I Love You 5. Motown, The Complete No. VA - 101 Motown Anthems (2017) EAC Rip | FLAC (tracks & cue & log) -> 2. 14:25 Ain't No Woman (Like The One I Got) 20:40 Inner City Blues. Yesterday - Marvin Gaye 6. The Motown Collection (12 SHM CD Box Set) (2011) [FLAC|Lossless] Гость » 12 янв 2015, 18:03 Michael Jackson & Jackson 5 - Dear Michael. MOTOWN THE MUSICAL. 04:15 You Are My Lady. Available in Audiophile 96kHz/24bit. 1: 1959-1961. VA - Motown Greatest Hits - 3CD - 2019 (FLAC) File format: FLAC (Tracks) Quality: Lossless Frequency: 44,100 khz Genre: Funk, Soul, R&B Disc: 1 1. Diana Ross & The Supremes - For Once In My Life 02:5302. Buy 'Pinky Ring by Ne-Yo' MP3 download online from 7digital United States - Over 30 million high quality tracks in our store. Korn - Korn Rock music. Directed by Spike Lee. Various Artists - Motown Love Released: 2009 Genre: R&B, Soul Bitrate: MP3 320 KBPS. Are Ya Gonna Eat That? 7. Joint and a Shot 4. flac" WAVE TRACK 18 AUDIO TITLE "Ain't No Mountain High Enough" PERFORMER "Diana Ross" INDEX 01 00:00:00 FILE "Various\MOTOWN - The Complete NO. Christine Elizabeth Clark (born February 1, 1946), better known as Chris Clark, is an American soul, jazz, and blues singer, who recorded for Motown Records. Ne-Yo - Another Kind Of Christmas (2019) {Compound Entertainment/Motown} EAC Rip | FLAC | scans | 235 mb MP3 CBR 320 kbps | RAR | 83 mb Genre: Christmas, soul, R&B. VA - Motown The Musical Originals - 40 Classic Songs That Inspired The Broadway Show! (2015) FLAC/MP3; VA - The Motown Story (2006) VA - Motown The Musical: 40 Classic Songs That Inspired the Musical! (2016) VA - Motown Classics Gold (2005) VA - Hitsville The Making Of Motown (2CD, 2019) Various Artists - Motown Greatest Hits (2019). Artist: Various Artists Title Of Album: The Complete Motown Singles - Vol 12B: 1972 Year Of Release: 2013 Label (Catalog#): Hip-O Select [B0019213-02] Country: International Genre: Soul, Funk, Rhythm & Blues, Soul Rock Quality: FLAC (*tracks,cue,log) Bitrate: Lossless Time: 5:37:07 Full Size: 2. Whether you're new to Motown or a seasoned veteran, you'll find something good here. Fast Break was not a successful film, but the single was released on Motown in Europe and started to sell, entering the UK charts on 15 December 1979 in the anchor position of the top 75. 36 MB Blue-eyed soul crooner Michael McDonald gave his career a much-needed shot in the arm with 2003's Motown, a commercially well-received collection that matched the one-time Doobie Brother and '80s solo star's rich vocals. Sweet and Sexy Thing". Title: The Complete Motown Recordings 1964-1965 ; Artist: Dorsey Burnette; Genre: Pop, Box Sets; Label: Motown ; Release Date: 2014 ; Notes: Tracks 7, 8, 10 & 11 are 48khz/24bit sources mastered to 96khz/24bit files. The Jackson 5 x The Violent Femmes - I Want You Back (Maitre D's Blister Edit) 2. FREE Shipping on orders over $25. 1 > 1-bit/2. flac" WAVE TRACK 19 AUDIO TITLE "I'll Be There" PERFORMER "The Jackson 5" INDEX 01 00:00:00. Buy Walking Through Motown EP by Subradeon on Bleep. Message To Michael (02:51) 03. The Classic Of Diana Ross flac download Diana Ross & The Supremes - Diana Ross & The Supremes flac download Diana Ross - Diana's Duets flac download Various - Love Motown flac download. Mary Wells - Bye Bye Baby 2. 0 Tracklist: 01. 1's Disc3\19 - I'll Be There. The original motion picture soundtrack to the Showtime documentary film "Hitsville: The Making of Motown" features remastered audio. 1 > 1-bit/2. 12A: 1972, the Four Tops sing "L. I'm Not The Only One by Sam Smith. FLAC 16 bit / Soul / Funk / RnB / Collection Best Hits 1-11-2019, 03:10 589 0 aleXs All albums Various Motown Quality: FLAC 16 bit / 44. This Masquerade 7. Diana Ross - The Motown Anthology (2001) (Original Recording Remastered) FLAC EAC rip | 2CD | FLAC-image - Log - Cue | Full Scans | Release: 2001 | 1. 3 flac download Various - Motown's Biggest Pop Hits: All #1 On Billboard's Charts flac download Diana Ross - Free Soul. Michael Jackson - The Motown Years 50 [Qobuz CD 16bits/44. Motown Greatest Hits (3CD Box Set) (2019) FLAC Genres: FLAC 16 bit / Soul / Funk / RnB / Collection Best Hits 1-11-2019, 03:10 593 aleXs All music Various Motown. Diana Ross & The Supremes With The Temptations - A Bit Of Liverpool / TCB download mp3 flac Various - A Motown Anniversary Collection download mp3 flac Various - Every Great Motown Song: The First 25 Years As Originally Recorded download mp3 flac Rock music. 1kHz Audio Channels: 2. Walk In The Night: The Motown 70s Studio Albums by Jr. High quality Michael Jackson MP3 downloads from 7digital United States. Aprovado Jovem Pan Vol 3 Label: Mercury - 553 571-2, PolyGram - 553 571-2 Series: Aprovado Jovem Pan Format: CD, Compilation Country: Brazil Released: 1997. Here I Am Baby (02:49). 12A: 1972, the Four Tops sing "L. Walker & The All Stars - Riding / 2019, Lossless, WEB Flac, KaRaMusic. 23GB The Drifters - First Loves The Complete Drifters Singles 1972-1980 2CD (2010)[FLAC] 700. FLAC (CD RIP) Motown Greatest Hits (2019) Style: Soul Release Date: 2019 RAR / ZIP Size: 485 MB Flac. 04:15 You Are My Lady. A decade earlier, Motown dipped their toe in the water with the jumbled Back to Front, which tried desperately to camouflage its nature as a comp with three new songs, which, at 14 tracks, hurt the hit quotient dramatically. The Jackson 5 x The Violent Femmes - I Want You Back (Maitre D's Blister Edit) 2. Everything Is Good About You (03:28) 04. Listen to more stations from Magic. Profile: Series Parent Label: Hip-O Select [l559336] Label. Soul! - The Very Best Of Motown [4 CD set] Soul! - The Very Best Of Motown (4 CD set) CD1----- 01 - The Marvelettes - Too Many Fish In The Sea. Get Ready - The Temptations 2. From the 1986 album The Flag. Boomkat Limited Second Floor, Swan Building 20 Swan Street Manchester M4 5JW United Kingdom Tel: +44 (0) 161 832 2565 [email protected] Download MP3, WAV, FLAC. Written and produced by Motown's main production team Holland-Dozier-Holland, the song was the group's first Motown single and their first pop Top 20 hit, making it to number eleven on the Billboard Hot 100 in the fall of 1964. 0 Total Size: 1. cue, log-file) Quality: Lossless Total Size: 2,08 gb TRACKLIST: CD 1 01 - Supremes - Baby Love 02 - Martha Reeves & The Vandellas - Dancing In The Street. 8MHz/64fs Download DSD Multichannel 2. Motown Classics Gold (2005) FLAC. November 2010 EAC extraction logfile from 23. Michael McDonald never disguises what his seventh solo album is: the title Motown makes it clear that this 2003 effort is a tribute to the glory days of Berry Gordy’s Detroit empire. cue), lossless Since the arrival of Erykah Badu onto the neo-soul scene back in 1997 with Baduizm, commercial music stood up and took notice with an onslaught of similar artists reaching comparable peaks of mainstream success. 74MB; The Complete Motown Singles - [ANT] 13. Ö3 Greatest Hits Vol. Charles Davis 1933 - 2016. Download Hitsville: The Making Of Motown (Original Motion Picture Soundtrack) by Various Artists in high-resolution audio at ProStudioMasters. Artists: Various Artists Album: The Complete Motown Singles Volume 12 A-B (10 CD, Collection, 1972) Year Release: 2013 Genre: RB, soul, rock Audio: FLAC, 436-503 kbps 11:47:04 3,85 GB -585- Tracklists: CD-01. Korn - Korn Rock music. Although best known for first recording "Tainted Love" and then for her musical and personal relationship with Marc Bolan of T-Rex, powerful vocalist Gloria Jones had a long tenure at Motown, both as a songwriter and recording artist, whose little known 1973 LP became a cult classic. Various - Top 10 With A Bullet! Motown Love Songs / Motown Dance! album mp3 flac. The Elgins - The Motown Anthology (2007) FLAC Dionne Warwick - Collection 1963-1977 (23 Albums Mini LP CD Remastered) (2013) FLAC La Soul C'etait Mieux Avant (5CD) (2017) FLAC. 3 flac download Various - Motown's Biggest Pop Hits: All #1 On Billboard's Charts flac download Diana Ross - Free Soul. Diana Ross & The Supremes - For Once In My Life 02:5302. Michael McDonald - Motown (2003) PS3 Rip | SACD ISO | DST 64 2. Download Motown Legends - Volume 3 - 1995 [FLAC] [RLG] torrent or any other torrent from Lossless category. During this time, the group recorded more hit singles, including "I Feel a Song (In My Heart)", "Part-Time Love", "Love Finds Its Own Way" and the live recording, "The Way We Were/Try to Remember". It is a complete listing of all their singles and albums. The singer's fourth and final album for Motown, IT MUST BE MAGIC--her second fully self-written, self-produced effort--oversaw Marie's true creative emancipation. VA - Motown: The Early Years 1959-62 (2020)(Flac) kaschi. FILE "Various\MOTOWN - The Complete NO. The Complete Motown Recordings 1964-1965. Fingertips, Part 2 -. Diana Ross - All The Great Hits [Motown 1965-1981, 320 kbps]. My World Is Empty Without You (03:06) 02. Various - Motown Hits Of Gold Vol. - Duration: 10:50. Vinyl and CD 1 - 14 of 14. The Jackson 5 x The Violent Femmes - I Want You Back (Maitre D's Blister Edit) 2. The company was incorporated in Detroit on January 12, 1959 under the name Tamla Records. Also available in the iTunes Store. Motown by Smooth Jazz Sax Instrumentals, released 24 February 2010 1. The selections on this compilation were transferred from the original single mixes, which were mixed for AM radio play and 45 RPM singles. ERYKAH BADU - Mama's Gun [2000] Motown / FLAC (tracks+. MOTOWN MAGIC follows Ben, a wide-eyed eight-year-old with a big heart and an amazing imagination, who uses his magic paintbrush to bring the street-art decorating his city, Motown, to life. Each 11-minute episode incorporates a plotline inspired by the themes and characters of a classic Motown song, and an original version of that song covered. 12A 1972 (2013) + flac 14 Days Free Access to USENET! Free 300 GB with Full DSL-Broadband Speed!. Known for what author Bill Dahl calls a "holy-roller brand of gymnastic, fire-breathing excitement," the Isley Brothers have big hits both before and after their three-year Motown tenure (1965-1968), but their recordings for Berry Gordy's company are beloved by aficionados for perfectly blending the New Jersey-based group's gospel-like fury with the Detroit Sound. 12A: 1972 Umělec Různí interpreti Ke stažení ve formátu MP3 a FLAC Obsahuje hity ♫ Money ♫ Shadow ♫ L. All of these collectable CD Box sets are in superb condition apart from Vol 7 where one of the CD's has a few minor scuffs The Boxes are all Excellent with very. Notes: Release Date: 1992 Genre: R&B/Motown/Soul 18. flac 03 - Hello. 0) XLD extraction logfile from 2012-04-18 14:47:28 +0000 Various Artists / Motown 50 Greatest Hits Collection (Vol. r] Year : 2009 Genre : Electronic , Soul , Funk , Synth-pop , Disco. The Very Best Of Marvin Gaye Flac Torrent >>> DOWNLOAD. 2017 registriert haben, können sich mit den ihnen bekannten Zugangsdaten einloggen. Motown ‎- B0012208-02 Format: 10 × CD , Compilation. Artist: Various ArtistsAlbum: Motown Unreleased 1969 Label: UNI - MOTOWNReleased: 2019Genre: R&BCountry: WorldDuration: 03:15:06Tracklisting:01. Diana Ross & The Supremes - Farewell download flac; Diana Ross And The Supremes - Reflections download flac. Four Tops - A. HTTP download also available at fast speeds. The Marvelletes - Please Mr Postman - The Marvelettes 4. 13MB ) Motown Singles - CD58-19 - King Floyd - Together We Can Do Anything. During this time, the group recorded more hit singles, including "I Feel a Song (In My Heart)", "Part-Time Love", "Love Finds Its Own Way" and the live recording, "The Way We Were/Try to Remember". Total Size: 3. Motown - Best of Motown album mp3 flac Soul. 10 GB (FLAC Mch) + 1. ERYKAH BADU - Mama's Gun [2000] Motown / FLAC (tracks+. flac" WAVE TRACK 18 AUDIO TITLE "Ain't No Mountain High Enough" PERFORMER "Diana Ross" INDEX 01 00:00:00 FILE "Various\MOTOWN - The Complete NO. 1 kHz Tracklist: 01. FLAC 16 bit / Soul / Funk / RnB / Collection Best Hits 10-11-2019, 12:02 384 0 aleXs All albums Various Motown Quality: FLAC 16 bit / 44. 76MB ) Motown Singles - CD61-01- Messengers - That's The Way A Woman Is. Motown Edits Volume 2 by Maitre D, released 25 March 2020 1. Motown Singles - CD60-01 - Marvin Gaye - Mercy Mercy Me (The Ecology). Hard Day's Night - The Supremes 2. The selections on this compilation were transferred from the original single mixes, which were mixed for AM radio play and 45 RPM singles. The Supremes - Where Did Our Love Go (02:31) 02. 0 Total Size: 1. flac) Тип рипа: tracks+. com - Available in 96 kHz / 24-bit AIFF, FLAC high resolution audio formats,. "Play Me Some Motown"on the Dayton Soul Rhythm label; will surely do the job, transporting your mind. cc, extratorrent ag, extratorrent. back to a time, where classic Soul and R&B was on the radio. Download Motown Unreleased: 1969 by Various Artists in high-resolution audio at ProStudioMasters. Year Title Artist Type Rating Releases; 1: 2005: The Complete Motown Singles, Volume 1: 1959-1961: Various Artists: Album + Compilation: 2: 2: 2005: The Complete. Various - Top 10 With A Bullet! Motown Love Songs / Motown Dance! album mp3 flac. LiveMJHighDefinition 4,200,982 views. Explore releases from the The Complete Motown Singles label. This article presents the discography of Motown group The Temptations. flac 04 - How Sweet It Is (To Be Loved By You). Alegria - Mas Que Nada album mp3 flac Electronic.